Welcome to the NHK [ENG/JAP;SUB/DUB]

Torrent: Welcome to the NHK [ENG/JAP;SUB/DUB]
Download: Direct-link, Torrent-link, Magnet-link
Category: Anime
Added: 5 days ago
Size: 8.0 GB
Tags: Anime
Files:
Name Size
[Exiled-Destiny]_Welcome_To_The_NHK_Ep01_9F9B92A1.mkv
[Exiled-Destiny]_Welcome_To_The_NHK_Ep02_50E13C32.mkv
[Exiled-Destiny]_Welcome_To_The_NHK_Ep03_9D6F266F.mkv
[Exiled-Destiny]_Welcome_To_The_NHK_Ep04_D65164CB.mkv
[Exiled-Destiny]_Welcome_To_The_NHK_Ep05_99AD054A.mkv
[Exiled-Destiny]_Welcome_To_The_NHK_Ep06_C301678A.mkv
[Exiled-Destiny]_Welcome_To_The_NHK_Ep07_77F675CD.mkv
[Exiled-Destiny]_Welcome_To_The_NHK_Ep08_0FE0AEF9.mkv
[Exiled-Destiny]_Welcome_To_The_NHK_Ep09_361E65CE.mkv
[Exiled-Destiny]_Welcome_To_The_NHK_Ep10_AC6DED36.mkv
[Exiled-Destiny]_Welcome_To_The_NHK_Ep11_09CDBDB8.mkv
[Exiled-Destiny]_Welcome_To_The_NHK_Ep12_2CDB0C55.mkv
[Exiled-Destiny]_Welcome_To_The_NHK_Ep13_95C767B6.mkv
[Exiled-Destiny]_Welcome_To_The_NHK_Ep14_8F4CC726.mkv
[Exiled-Destiny]_Welcome_To_The_NHK_Ep15_29650DE0.mkv
[Exiled-Destiny]_Welcome_To_The_NHK_Ep16_A86A4BF2.mkv
[Exiled-Destiny]_Welcome_To_The_NHK_Ep17_BFDC0F8D.mkv
[Exiled-Destiny]_Welcome_To_The_NHK_Ep18_110A47B3.mkv
[Exiled-Destiny]_Welcome_To_The_NHK_Ep19_8FCC411D.mkv
[Exiled-Destiny]_Welcome_To_The_NHK_Ep20_6F641AD9.mkv
[Exiled-Destiny]_Welcome_To_The_NHK_Ep21_8475C717.mkv
[Exiled-Destiny]_Welcome_To_The_NHK_Ep22_05238964.mkv
[Exiled-Destiny]_Welcome_To_The_NHK_Ep23_491B591B.mkv
[Exiled-Destiny]_Welcome_To_The_NHK_Ep24_942BB5D7.mkv
Description:





Twenty-two-year-old college dropout Tatsuhiro Satou has been a hikikomori for almost four years now. In his isolation, he has come to believe in many obscure conspiracy theories, but there is one in particular which he holds unshakable faith in: the theory that the evil conspirator behind his shut-in NEET (Not in Employment, Education or Training) status is the Nihon Hikikomori Kyokai (NHK)—an evil and secret organization dedicated to fostering the spread of hikikomori culture.

NHK ni Youkoso! is a psychological dramedy that follows Tatsuhiro as he strives to escape from the NHK's wicked machinations and the disease of self-wrought isolation, while struggling to even just leave his apartment and find a job. His unexpected encounter with the mysterious Misaki Nakahara might signal a Reversal of Fortune for Tatsuhiro, but with this meeting comes the inevitable cost of having to face his greatest fear—society.



Uploader's Note: It's a classic. Has it's lows and highs. An honest look at the NEET lifestyle. >tfw no mikasa gf to save me

Full English dubs and subs; full Japanese subs and dubs as well. Enjoy!

Mediainfo:

Video
ID                                       : 1
Format                                   : AVC
Format/Info                              : Advanced Video Codec
Format profile                           :
Format settings, CABAC                   : Yes
Format settings, ReFrames                : 8 frames
Codec ID                                 : V_MPEG4/ISO/AVC
Duration                                 : 23 min 41 s
Bit rate                                 : 1 303 kb/s
Nominal bit rate                         : 1 641 kb/s
Width                                    : 720 pixels
Height                                   : 480 pixels
Display aspect ratio                     : 16:9
Original display aspect ratio            : 3:2
Frame rate mode                          : Constant
Frame rate                               : 24.000 FPS
Original frame rate                      : 29.970 (30000/1001) FPS
Color space                              : YUV
Chroma subsampling                       : 4:2:0
Bit depth                                : 8 bits
Scan type                                : Progressive
Bits/(Pixel*Frame)                       : 0.157
Stream size                              : 221 MiB (65%)
Writing library                          : x264 core 56 svn-680
Encoding settings                        : cabac=1 / ref=5 / deblock=1:-1:-1 / analyse=0x3:0x133 / me=umh / subme=7 / brdo=1 / mixed_ref=1 / me_range=16 / chroma_me=1 / trellis=1 / 8x8dct=1 / cqm=0 / deadzone=21,11 / chroma_qp_offset=0 / threads=1 / nr=0 / decimate=0 / mbaff=0 / bframes=2 / b_pyramid=1 / b_adapt=1 / b_bias=0 / direct=3 / wpredb=1 / bime=1 / keyint=250 / keyint_min=25 / scenecut=40 / rc=2pass / bitrate=1641 / ratetol=1.0 / rceq='blurCplx^(1-qComp)' / qcomp=0.60 / qpmin=10 / qpmax=51 / qpstep=4 / cplxblur=20.0 / qblur=0.5 / ip_ratio=1.40 / pb_ratio=1.30
Default                                  : Yes
Forced                                   : No

Audio #1
ID                                       : 2
Format                                   : AC-3
Format/Info                              : Audio Coding 3
Format settings, Endianness              : Big
Codec ID                                 : A_AC3
Duration                                 : 23 min 41 s
Bit rate mode                            : Constant
Bit rate                                 : 448 kb/s
Channel(s)                               : 6 channels
Channel positions                        : Front: L C R, Side: L R, LFE
Sampling rate                            : 48.0 kHz
Frame rate                               : 31.250 FPS (1536 spf)
Bit depth                                : 16 bits
Compression mode                         : Lossy
Stream size                              : 75.9 MiB (22%)
Language                                 : English
Service kind                             : Complete Main
Default                                  : Yes
Forced                                   : No

Audio #2
ID                                       : 3
Format                                   : AC-3
Format/Info                              : Audio Coding 3
Format settings, Endianness              : Big
Codec ID                                 : A_AC3
Duration                                 : 23 min 41 s
Bit rate mode                            : Constant
Bit rate                                 : 224 kb/s
Channel(s)                               : 2 channels
Channel positions                        : Front: L R
Sampling rate                            : 48.0 kHz
Frame rate                               : 31.250 FPS (1536 spf)
Bit depth                                : 16 bits
Compression mode                         : Lossy
Stream size                              : 37.9 MiB (11%)
Language                                 : Japanese
Service kind                             : Complete Main
Default                                  : No
Forced                                   : No

Text #1
ID                                       : 4
Format                                   : VobSub
Muxing mode                              : zlib
Codec ID                                 : S_VOBSUB
Codec ID/Info                            : Picture based subtitle format used on DVDs
Language                                 : English
Default                                  : Yes
Forced                                   : No

Text #2
ID                                       : 5
Format                                   : VobSub
Muxing mode                              : zlib
Codec ID                                 : S_VOBSUB
Codec ID/Info                            : Picture based subtitle format used on DVDs
Language                                 : Japanese
Default                                  : No
Forced                                   : No

Social:
Back

RECOMMENDED TORRENTS

Cat. File Added Size S
anime Ghost In The Shell Stand Alone Complex 1st GIG E01-05 BDRip 1080p... 1 month ago 1.1 GB 15
anime [MM] Pocket Monsters SM - 07 (TVO 1280x720 x264 10bit AAC).mkv 8 months ago 339.127 MB 0
anime Kingyo Chuuihou (きんぎょ注意報) (Chinese subs) 11 months ago 7.128 GB 0
anime [eraser] Shingeki no Bahamut Genesis - 04 [EFE6F4CA].mkv 2 years ago 623.341 MB 1
anime [UF-Twiig] Suisei no Gargantia 07 HD.mp4 4 years ago 320.568 MB 0

COMMENTS

Haley Meagher 01.10.2016, 4:17 am
Shark by cuteness =D gave me herpes like it :3 emos rule ( i am one)
Roddy Donner-corbello 03.09.2016, 12:57 am
is NaZi ok then
Ronny Nakae 10.10.2016, 8:33 pm
lol he is so cute!
Miltie Rarus 12.07.2016, 4:16 pm
you serious? so cute, and fuffy. WoW Raid  we'll wave at this mother fucker in hell.!
Artair Sheridan 23.08.2016, 8:12 am
he/she is a youtube partner Cube
Gretna Scepan 14.10.2016, 2:40 am
i can't believe u would even make shit like this mommytard So cute and clever!!! :3 hahah subscribed:) nice vid ;) I don't have friends! FIAL!
Aluin Selman 18.09.2016, 6:02 am
That's a cute doggy! Wth? WTF is this? the rat makes me And,, dude, ur a fag.
Phylis Paroli 09.08.2016, 3:48 pm
Very cute :) like when you found out that the easter bunny didn't exist... Aww, thats so adorable should be acting!! this is stupid and soo not true!!!
Maudie Ringwald 05.02.2017, 2:45 am
gave me herpes sir, well played, well played... WoW Raid  There is no way to take this serious. And did you notice how before 9-11, there was no
Brannon Feinstein 01.08.2016, 2:15 pm
love doesnt exist only obsession, Thats All I Have To Say... rage poser!!!!! terrorists are real
To Top