New Game! Season 1 720p (EngDub) Download

Torrent: New Game! Season 1 720p (EngDub) Download
Download: Direct-link, Torrent-link, Magnet-link
Category: Anime
Added: 4 days ago
Size: 2.0 GB
Tags: Anime
Files:
Name Size
DigiMaza.comNew Game! Episode05.mkv
DigiMaza.comNew Game! Episode06.mkv
DigiMaza.comNew Game! Episode03.mkv
DigiMaza.comNew Game! Episode02.mkv
DigiMaza.comNew Game! Episode01.mkv
DigiMaza.comNew Game! Episode04.mkv
DigiMaza.comNew Game! Episode12.mkv
DigiMaza.comNew Game! Episode08.mkv
DigiMaza.comNew Game! Episode11.mkv
DigiMaza.comNew Game! Episode09.mkv
DigiMaza.comNew Game! Episode07.mkv
DigiMaza.comNew Game! Episode10.mkv
Read Me.txt 0.5 KB
Description:

New Game! Season 1 Complete 720p (EngDub) Download

Quote:

After graduating high school, Suzukaze Aoba joins Eagle Jump, the game company that developed Fairies Story, the game she obsessed over as a kid. On her first day as a working member of society, Aoba heads to work swaying in a packed, morning rush hour train. She manages to get to the office building all right but hesitates, wondering if it was really okay for her to take that last step and go inside. That's when a senior member of staff, Toyama Rin, shows up at work and safely leads Aoba inside the offices of Eagle Jump.


..::File Specs::..
General

Format                                   : Matroska
Format version                           : Version 4 / Version 2
Duration                                 : 23 min 50 s
Overall bit rate                         : 1 537 kb/s

Video
ID                                       : 1
Format                                   : AVC
Format/Info                              : Advanced Video Codec
Format profile                           :
Format settings, CABAC                   : Yes
Format settings, RefFrames               : 3 frames
Codec ID                                 : V_MPEG4/ISO/AVC
Duration                                 : 23 min 50 s
Bit rate                                 : 1 280 kb/s
Width                                    : 1 280 pixels
Height                                   : 720 pixels
Display aspect ratio                     : 16:9
Frame rate mode                          : Constant
Frame rate                               : 23.976 (24000/1001) FPS
Color space                              : YUV
Chroma subsampling                       : 4:2:0
Bit depth                                : 8 bits
Scan type                                : Progressive
Bits/(Pixel*Frame)                       : 0.058
Stream size                              : 218 MiB (83%)
Writing library                          : x264 core 148 r2643 5c65704
Default                                  : Yes
Forced                                   : No

Audio
ID                                       : 2
Format                                   : AAC
Format/Info                              : Advanced Audio Codec
Format profile                           : LC
Codec ID                                 : A_AAC
Duration                                 : 23 min 50 s
Bit rate                                 : 253 kb/s
Channel(s)                               : 2 channels
Channel positions                        : Front: L R
Sampling rate                            : 48.0 kHz
Frame rate                               : 46.875 FPS (1024 SPF)
Compression mode                         : Lossy
Stream size                              : 43.2 MiB (16%)
Language                                 : English

..::ScreenShots::..

http://i.imgur.com/1kjBztP.png
http://i.imgur.com/38edt0X.jpg

================================================================
Seed Seed Seed Seed Seed Seed Seed Seed Seed Seed Seed Seed Seed
To direct download or Watch Online this file, Visit.
www.bit.ly/2qz6ATZ
Seed Seed Seed Seed Seed Seed Seed Seed Seed Seed Seed Seed Seed
================================================================


Social:
Back

RECOMMENDED TORRENTS

Cat. File Added Size S
anime Ghost In The Shell Stand Alone Complex 1st GIG E01-05 BDRip 1080p... 1 month ago 1.1 GB 15
anime [MM] Pocket Monsters SM - 07 (TVO 1280x720 x264 10bit AAC).mkv 8 months ago 339.127 MB 0
anime Kingyo Chuuihou (きんぎょ注意報) (Chinese subs) 11 months ago 7.128 GB 0
anime [eraser] Shingeki no Bahamut Genesis - 04 [EFE6F4CA].mkv 2 years ago 623.341 MB 1
anime [UF-Twiig] Suisei no Gargantia 07 HD.mp4 4 years ago 320.568 MB 0

COMMENTS

Haley Meagher 01.10.2016, 4:17 am
Shark by cuteness =D gave me herpes like it :3 emos rule ( i am one)
Roddy Donner-corbello 03.09.2016, 12:57 am
is NaZi ok then
Ronny Nakae 10.10.2016, 8:33 pm
lol he is so cute!
Miltie Rarus 12.07.2016, 4:16 pm
you serious? so cute, and fuffy. WoW Raid  we'll wave at this mother fucker in hell.!
Artair Sheridan 23.08.2016, 8:12 am
he/she is a youtube partner Cube
Gretna Scepan 14.10.2016, 2:40 am
i can't believe u would even make shit like this mommytard So cute and clever!!! :3 hahah subscribed:) nice vid ;) I don't have friends! FIAL!
Aluin Selman 18.09.2016, 6:02 am
That's a cute doggy! Wth? WTF is this? the rat makes me And,, dude, ur a fag.
Phylis Paroli 09.08.2016, 3:48 pm
Very cute :) like when you found out that the easter bunny didn't exist... Aww, thats so adorable should be acting!! this is stupid and soo not true!!!
Maudie Ringwald 05.02.2017, 2:45 am
gave me herpes sir, well played, well played... WoW Raid  There is no way to take this serious. And did you notice how before 9-11, there was no
Brannon Feinstein 01.08.2016, 2:15 pm
love doesnt exist only obsession, Thats All I Have To Say... rage poser!!!!! terrorists are real
To Top