[KANNADA] Ishtakamya 2016 1080p Untouched WebHD x264 AAC [TMB]

Torrent: [KANNADA] Ishtakamya 2016 1080p Untouched WebHD x264 AAC [TMB]
Download: Direct-link, Torrent-link, Magnet-link
Category: Movies
Added: 1 month ago
Size: 2.4 GB
Tags: hd
Files:
Name Size
Ishtakamya 2016 1080p Untouched WebHD x264 AAC [TMB].mp4 2.4 GB
Description:



























General
Complete name : Ishtakamya 2016 1080p Untouched WebHD x264 AAC [TMB].mp4
Format : MPEG-4
Format profile : Base Media
Codec ID : isom (isom/iso2/avc1/mp41)
File size : 2.41 GiB
Duration : 2 h 13 min
Overall bit rate mode : Variable
Overall bit rate : 2 583 kb/s
Writing application : Lavf56.40.101

Video
Format : AVC
Format/Info : Advanced Video Codec
Format profile :
Format settings, CABAC : Yes
Format settings, ReFrames : 5 frames
Codec ID : avc1
Codec ID/Info : Advanced Video Coding
Duration : 2 h 13 min
Bit rate : 2 500 kb/s
Width : 1 920 pixels
Height : 1 080 pixels
Display aspect ratio : 16:9
Frame rate mode : Constant
Frame rate : 25.000 FPS
Color space : YUV
Chroma subsampling : 4:2:0
Bit depth : 8 bits
Scan type : Progressive
Bits/(Pixel*Frame) : 0.048
Stream size : 2.28 GiB (95%)
Writing library : x264 core 148 r2721 72d53ab

Audio
Format : AAC
Format/Info : Advanced Audio Codec
Format profile : LC
Codec ID : 40
Duration : 2 h 13 min
Bit rate mode : Variable
Bit rate : 128 kb/s
Maximum bit rate : 131 kb/s
Channel(s) : 2 channels
Channel positions : Front: L R
Sampling rate : 44.1 kHz
Frame rate : 43.066 FPS (1024 spf)
Compression mode : Lossy
Stream size : 122 MiB (5%)


Uploaded & Shared by Manojvb

Seeding 24x7... Extreme Seeding...


Social:
Back

COMMENTS

Dall Dijkstra 12.08.2016, 6:15 am
Hide-and-go-seek super bass we'll wave at this mother fucker in hell.! sweettand cute for cuteness! =S The Christian who sees Jesus in a piece of burnt toast?
Garey Maier 21.10.2016, 12:00 pm
what a cutie ^^
Nico Nebebe 30.09.2016, 12:02 am
made me dizzy thanks for sending it! I feel like hugging ^w^ omg ....... ok? Really?
Auria Rosario 03.02.2017, 12:26 am
o away and quit posting can't explain that
Benita Olivier 27.09.2016, 8:41 am
it's so full of stereotypes that It was you YOUR country
Bran Romeo 26.12.2016, 5:34 am
can trolls some how track me down? cats are parkour animals!!!!!!!!!!!!! so awesome ^^ Extra sensitive and highly emotional...? he is gorgous little
Hillel Berenguier 15.03.2017, 4:56 am
Nuff said.
Zedekiah Halporn 08.07.2016, 10:58 pm
..nice 2 meet u lol wth is that is so so what cute video 5 stars not like bullshit propaganda
Nil D'ambra 16.10.2016, 7:56 am
maybe throw in a backflip! Have a great night and I hope everyone have their own life to live... yeaah. It's so ridiculous. XD nice! but i don't play on new years at all!  Bwahaha so deluded.
Charlie Badulescu 25.09.2016, 8:06 pm
Wow. terrorists are real
To Top