[REUP] The Avengers 2012 (1080p Bluray x265 HEVC 10bit AAC 5.1 Ti...

Torrent: [REUP] The Avengers 2012 (1080p Bluray x265 HEVC 10bit AAC 5.1 Ti...
Download: Direct-link, Torrent-link, Magnet-link
Category: Movies
Added: 5 days ago
Size: 3.2 GB
Tags: HEVC/x265
Files:
Name Size
A Visual Journey.mkv 74.4 MB
Deleted and Extended Scenes.mkv 169.4 MB
Gag Reel.mkv 46.0 MB
Marvel One-Shot - Item 47.mkv 79.3 MB
The Avengers 2012 1080p x265 10bit Tigole.mkv
Description:



The Avengers 2012 in 1080p, encoded with x265 in HEVC and AAC 5.1 English, with subtitles!
Encoded using the time consuming 2 pass, 10 bit color at 2500 kbps, from a Blu-ray source, for the highest quality possible.



Media Information

Code:

General
Unique ID : 240204993591148449492286904621088764118 (0xB4B5CC8AED3E42E6A9033E23AF39F0D6)
Complete name : The Avengers 2012 (1080p x265 10bit Tigole).mkv
Format : Matroska
Format version : Version 4 / Version 2
File size : 2.84 GiB
Duration : 2h 22mn
Overall bit rate : 2 843 Kbps
Movie name : Marvel's The Avengers
Encoded date : UTC 2016-06-27 09:17:39
Writing application : mkvmerge v9.1.0 ('Little Earthquakes') 64bit
Writing library : libebml v1.3.3 + libmatroska v1.4.4

Video
ID : 1
Format : HEVC
Format/Info : High Efficiency Video Coding
Format profile : Main @Main
Codec ID : V_MPEGH/ISO/HEVC
Duration : 2h 22mn
Bit rate : 2 477 Kbps
Width : 1 920 pixels
Height : 1 080 pixels
Display aspect ratio : 16:9
Frame rate mode : Constant
Frame rate : 23.976 (24000/1001) fps
Color space : YUV
Chroma subsampling : 4:2:0
Bit depth : 10 bits
Bits/(Pixel*Frame) : 0.050
Stream size : 2.47 GiB (87%)
Writing library : x265 1.9+200-6098ba3e0cf16b11:[Windows][GCC 5.3.0][64 bit] 10bit
Encoding settings : wpp / ctu=64 / min-cu-size=8 / max-tu-size=32 / tu-intra-depth=1 / tu-inter-depth=1 / me=1 / subme=2 / merange=57 / no-rect / no-amp / max-merge=2 / temporal-mvp / no-early-skip / recursion-skip / rdpenalty=0 / no-tskip / no-tskip-fast / strong-intra-smoothing / no-lossless / no-cu-lossless / no-constrained-intra / no-fast-intra / open-gop / no-temporal-layers / interlace=0 / keyint=250 / min-keyint=23 / scenecut=40 / rc-lookahead=20 / lookahead-slices=6 / bframes=4 / bframe-bias=0 / b-adapt=2 / ref=3 / limit-refs=3 / no-limit-modes / weightp / no-weightb / aq-mode=1 / qg-size=32 / aq-strength=1.00 / cbqpoffs=0 / crqpoffs=0 / rd=3 / psy-rd=2.00 / rdoq-level=0 / psy-rdoq=0.00 / no-rd-refine / signhide / deblock=0:0 / sao / no-sao-non-deblock / b-pyramid / cutree / no-intra-refresh / rc=2 / pass / bitrate=2477 / qcomp=0.60 / qpmin=0 / qpmax=51 / qpstep=4 / cplxblur=20.0 / qblur=0.5 / ipratio=1.40 / pbratio=1.30
Default : Yes
Forced : No

Audio
ID : 2
Format : AAC
Format/Info : Advanced Audio Codec
Format profile : LC
Codec ID : A_AAC
Duration : 2h 22mn
Bit rate : 341 Kbps
Channel(s) : 6 channels
Channel positions : Front: L C R, Side: L R, LFE
Sampling rate : 48.0 KHz
Frame rate : 46.875 fps (1024 spf)
Compression mode : Lossy
Delay relative to video : 20ms
Stream size : 349 MiB (12%)
Language : English
Default : No
Forced : No

Text #1
ID : 3
Format : VobSub
Muxing mode : zlib
Codec ID : S_VOBSUB
Codec ID/Info : Picture based subtitle format used on DVDs
Duration : 2h 15mn
Bit rate : 6 655 bps
Count of elements : 2043
Stream size : 6.44 MiB (0%)
Language : English
Default : No
Forced : No

Text #2
ID : 4
Format : VobSub
Muxing mode : zlib
Codec ID : S_VOBSUB
Codec ID/Info : Picture based subtitle format used on DVDs
Duration : 2h 15mn
Bit rate : 5 774 bps
Count of elements : 1753
Stream size : 5.59 MiB (0%)
Language : English
Default : No
Forced : No

Text #3
ID : 5
Format : VobSub
Muxing mode : zlib
Codec ID : S_VOBSUB
Codec ID/Info : Picture based subtitle format used on DVDs
Duration : 2h 15mn
Bit rate : 5 956 bps
Count of elements : 1764
Stream size : 5.77 MiB (0%)
Language : German
Default : No
Forced : No

Text #4
ID : 6
Format : VobSub
Muxing mode : zlib
Codec ID : S_VOBSUB
Codec ID/Info : Picture based subtitle format used on DVDs
Duration : 2h 15mn
Bit rate : 5 362 bps
Count of elements : 1646
Stream size : 5.19 MiB (0%)
Language : Turkish
Default : No
Forced : No

Text #5
ID : 7
Format : VobSub
Muxing mode : zlib
Codec ID : S_VOBSUB
Codec ID/Info : Picture based subtitle format used on DVDs
Duration : 3mn 46s
Bit rate : 2 807 bps
Count of elements : 31
Stream size : 77.5 KiB (0%)
Title : Forced
Language : English
Default : No
Forced : Yes

Text #6
ID : 8
Format : VobSub
Muxing mode : zlib
Codec ID : S_VOBSUB
Codec ID/Info : Picture based subtitle format used on DVDs
Duration : 3mn 46s
Bit rate : 2 830 bps
Count of elements : 30
Stream size : 78.1 KiB (0%)
Language : German
Default : No
Forced : No

Text #7
ID : 9
Format : VobSub
Muxing mode : zlib
Codec ID : S_VOBSUB
Codec ID/Info : Picture based subtitle format used on DVDs
Duration : 3mn 46s
Bit rate : 2 906 bps
Count of elements : 31
Stream size : 80.2 KiB (0%)
Language : Turkish
Default : No
Forced : No

Menu
00:00:00.000 : en:Chapter 01
00:08:02.315 : en:Chapter 02
00:11:49.166 : en:Chapter 03
00:15:18.751 : en:Chapter 04
00:20:33.482 : en:Chapter 05
00:23:04.257 : en:Chapter 06
00:29:39.444 : en:Chapter 07
00:37:23.991 : en:Chapter 08
00:42:47.982 : en:Chapter 09
00:50:22.269 : en:Chapter 10
01:01:04.661 : en:Chapter 11
01:14:05.107 : en:Chapter 12
01:28:01.234 : en:Chapter 13
01:38:20.561 : en:Chapter 14
01:45:40.167 : en:Chapter 15
01:51:15.085 : en:Chapter 16
01:57:47.769 : en:Chapter 17
02:04:38.679 : en:Chapter 18
02:09:39.396 : en:Chapter 19
02:13:10.691 : en:Chapter 20


Source Information

Code:


Social:
Back

RECOMMENDED TORRENTS

Cat. File Added Size S
Gangs of New York REMASTERED (2002) 1080p BrRip x264 - YIFY 4 years ago 2.361 GB 0
A Scanner Darkly 1080p BluRay x265 HEVC 10bit AAC 5.1-LordVako 1 year ago 1.579 GB 23
wrong turn 1+2 7 years ago 2.152 GB 0
The.Hunger.Games.(2012).DvD-Rip.JayBob.HD 4 years ago 726.663 MB 0
Hemingway.i.Gellhorn.2012.P.HDRip.2.18Gb.avi 4 years ago 2.344 GB 0

COMMENTS

Haley Meagher 01.10.2016, 4:17 am
Shark by cuteness =D gave me herpes like it :3 emos rule ( i am one)
Roddy Donner-corbello 03.09.2016, 12:57 am
is NaZi ok then
Ronny Nakae 10.10.2016, 8:33 pm
lol he is so cute!
Miltie Rarus 12.07.2016, 4:16 pm
you serious? so cute, and fuffy. WoW Raid  we'll wave at this mother fucker in hell.!
Artair Sheridan 23.08.2016, 8:12 am
he/she is a youtube partner Cube
Gretna Scepan 14.10.2016, 2:40 am
i can't believe u would even make shit like this mommytard So cute and clever!!! :3 hahah subscribed:) nice vid ;) I don't have friends! FIAL!
Aluin Selman 18.09.2016, 6:02 am
That's a cute doggy! Wth? WTF is this? the rat makes me And,, dude, ur a fag.
Phylis Paroli 09.08.2016, 3:48 pm
Very cute :) like when you found out that the easter bunny didn't exist... Aww, thats so adorable should be acting!! this is stupid and soo not true!!!
Maudie Ringwald 05.02.2017, 2:45 am
gave me herpes sir, well played, well played... WoW Raid  There is no way to take this serious. And did you notice how before 9-11, there was no
Brannon Feinstein 01.08.2016, 2:15 pm
love doesnt exist only obsession, Thats All I Have To Say... rage poser!!!!! terrorists are real
To Top