[REUP] Ant-Man 2015 (1080p Bluray x265 HEVC 10bit AAC 7.1 Tigole)...

Torrent: [REUP] Ant-Man 2015 (1080p Bluray x265 HEVC 10bit AAC 7.1 Tigole)...
Download: Direct-link, Torrent-link, Magnet-link
Category: Movies
Added: 4 days ago
Size: 2.5 GB
Tags: HEVC/x265
Files:
Name Size
Ant-Man 2015 1080p x265 10bit Tigole.mkv
Description:



Ant-Man 2015 in 1080p, encoded with x265 in HEVC and AAC 7.1 English, with subtitles!
Encoded using the time consuming 2 pass, 10 bit color at 2528 kbps, from a Blu-ray source, for the highest quality possible.



Media Information

Code:

General
Unique ID : 193600927745726191190066958372495980230 (0x91A62EB1CF583DFCB4064B23CAF476C6)
Complete name : Ant-Man 2015 (1080p x265 10bit Tigole).mkv
Format : Matroska
Format version : Version 4 / Version 2
File size : 2.49 GiB
Duration : 1h 57mn
Overall bit rate : 3 043 Kbps
Encoded date : UTC 2016-06-19 07:07:33
Writing application : mkvmerge v9.2.0 ('Photograph') 64bit
Writing library : libebml v1.3.3 + libmatroska v1.4.4

Video
ID : 1
Format : HEVC
Format/Info : High Efficiency Video Coding
Format profile : Main @Main
Codec ID : V_MPEGH/ISO/HEVC
Duration : 1h 57mn
Bit rate : 2 528 Kbps
Width : 1 920 pixels
Height : 1 040 pixels
Display aspect ratio : 1.85:1
Frame rate mode : Constant
Frame rate : 23.976 (24000/1001) fps
Color space : YUV
Chroma subsampling : 4:2:0
Bit depth : 10 bits
Bits/(Pixel*Frame) : 0.053
Stream size : 2.07 GiB (83%)
Writing library : x265 1.9+200-6098ba3e0cf16b11:[Windows][GCC 5.3.0][64 bit] 10bit
Encoding settings : wpp / ctu=64 / min-cu-size=8 / max-tu-size=32 / tu-intra-depth=1 / tu-inter-depth=1 / me=1 / subme=2 / merange=57 / no-rect / no-amp / max-merge=2 / temporal-mvp / no-early-skip / recursion-skip / rdpenalty=0 / no-tskip / no-tskip-fast / strong-intra-smoothing / no-lossless / no-cu-lossless / no-constrained-intra / no-fast-intra / open-gop / no-temporal-layers / interlace=0 / keyint=250 / min-keyint=23 / scenecut=40 / rc-lookahead=20 / lookahead-slices=6 / bframes=4 / bframe-bias=0 / b-adapt=2 / ref=3 / limit-refs=3 / no-limit-modes / weightp / no-weightb / aq-mode=1 / qg-size=32 / aq-strength=1.00 / cbqpoffs=0 / crqpoffs=0 / rd=3 / psy-rd=2.00 / rdoq-level=0 / psy-rdoq=0.00 / no-rd-refine / signhide / deblock=0:0 / sao / no-sao-non-deblock / b-pyramid / cutree / no-intra-refresh / rc=2 / pass / bitrate=2528 / qcomp=0.60 / qpmin=0 / qpmax=51 / qpstep=4 / cplxblur=20.0 / qblur=0.5 / ipratio=1.40 / pbratio=1.30
Default : Yes
Forced : No

Audio #1
ID : 2
Format : AAC
Format/Info : Advanced Audio Codec
Format profile : LC
Codec ID : A_AAC
Duration : 1h 57mn
Bit rate : 400 Kbps
Channel(s) : 8 channels
Channel positions : Front: L C R, Side: L R, Back: L R, LFE
Sampling rate : 48.0 KHz
Frame rate : 46.875 fps (1024 spf)
Compression mode : Lossy
Delay relative to video : 20ms
Stream size : 335 MiB (13%)
Language : English
Default : No
Forced : No

Audio #2
ID : 3
Format : AAC
Format/Info : Advanced Audio Codec
Format profile : HE-AAC / LC
Codec ID : A_AAC
Duration : 1h 57mn
Bit rate : 51.3 Kbps
Channel(s) : 2 channels
Channel positions : Front: L R
Sampling rate : 48.0 KHz / 24.0 KHz
Frame rate : 23.438 fps (1024 spf)
Compression mode : Lossy
Delay relative to video : 31ms
Stream size : 43.0 MiB (2%)
Language : English
Default : No
Forced : No

Text #1
ID : 4
Format : VobSub
Muxing mode : zlib
Codec ID : S_VOBSUB
Codec ID/Info : Picture based subtitle format used on DVDs
Duration : 1h 56mn
Bit rate : 6 902 bps
Count of elements : 1716
Stream size : 5.75 MiB (0%)
Language : English
Default : No
Forced : No

Text #2
ID : 5
Format : VobSub
Muxing mode : zlib
Codec ID : S_VOBSUB
Codec ID/Info : Picture based subtitle format used on DVDs
Duration : 1h 56mn
Bit rate : 5 895 bps
Count of elements : 1529
Stream size : 4.92 MiB (0%)
Language : Portuguese
Default : No
Forced : No

Text #3
ID : 6
Format : VobSub
Muxing mode : zlib
Codec ID : S_VOBSUB
Codec ID/Info : Picture based subtitle format used on DVDs
Duration : 1h 56mn
Bit rate : 5 605 bps
Count of elements : 1535
Stream size : 4.69 MiB (0%)
Language : Chinese
Default : No
Forced : No

Text #4
ID : 7
Format : VobSub
Muxing mode : zlib
Codec ID : S_VOBSUB
Codec ID/Info : Picture based subtitle format used on DVDs
Duration : 1h 56mn
Bit rate : 4 143 bps
Count of elements : 1538
Stream size : 3.46 MiB (0%)
Language : Thai
Default : No
Forced : No

Text #5
ID : 8
Format : VobSub
Muxing mode : zlib
Codec ID : S_VOBSUB
Codec ID/Info : Picture based subtitle format used on DVDs
Duration : 1h 56mn
Bit rate : 4 958 bps
Count of elements : 1685
Stream size : 4.14 MiB (0%)
Language : Chinese
Default : No
Forced : No

Text #6
ID : 9
Format : VobSub
Muxing mode : zlib
Codec ID : S_VOBSUB
Codec ID/Info : Picture based subtitle format used on DVDs
Duration : 1h 56mn
Bit rate : 4 199 bps
Count of elements : 1536
Stream size : 3.51 MiB (0%)
Language : Chinese
Default : No
Forced : No

Text #7
ID : 10
Format : VobSub
Muxing mode : zlib
Codec ID : S_VOBSUB
Codec ID/Info : Picture based subtitle format used on DVDs
Duration : 1h 56mn
Bit rate : 3 589 bps
Count of elements : 1525
Stream size : 3.00 MiB (0%)
Language : Korean
Default : No
Forced : No

Text #8
ID : 11
Format : VobSub
Muxing mode : zlib
Codec ID : S_VOBSUB
Codec ID/Info : Picture based subtitle format used on DVDs
Duration : 1h 56mn
Bit rate : 5 412 bps
Count of elements : 1528
Stream size : 4.51 MiB (0%)
Language : Indonesian
Default : No
Forced : No

Text #9
ID : 12
Format : VobSub
Muxing mode : zlib
Codec ID : S_VOBSUB
Codec ID/Info : Picture based subtitle format used on DVDs
Duration : 1h 56mn
Bit rate : 6 237 bps
Count of elements : 1515
Stream size : 5.20 MiB (0%)
Language : Latin
Default : No
Forced : No

Text #10
ID : 13
Format : VobSub
Muxing mode : zlib
Codec ID : S_VOBSUB
Codec ID/Info : Picture based subtitle format used on DVDs
Duration : 1h 57mn
Bit rate : 14.0 Kbps
Count of elements : 2389
Stream size : 11.7 MiB (0%)
Title : Commentary
Language : English
Default : No
Forced : No

Menu
00:00:00.000 : en:Chapter 1
00:02:08.837 : en:Chapter 2
00:08:40.186 : en:Chapter 3
00:15:24.840 : en:Chapter 4
00:19:59.740 : en:Chapter 5
00:27:50.210 : en:Chapter 6
00:33:07.235 : en:Chapter 7
00:38:53.956 : en:Chapter 8
00:44:36.465 : en:Chapter 9
00:49:22.459 : en:Chapter 10
00:57:44.252 : en:Chapter 11
01:00:48.811 : en:Chapter 12
01:06:31.529 : en:Chapter 13
01:23:21.287 : en:Chapter 14
01:34:20.529 : en:Chapter 15
01:47:34.239 : en:Chapter 16


Source Information

Code:


Social:
Back

RECOMMENDED TORRENTS

Cat. File Added Size S
Gangs of New York REMASTERED (2002) 1080p BrRip x264 - YIFY 4 years ago 2.361 GB 0
A Scanner Darkly 1080p BluRay x265 HEVC 10bit AAC 5.1-LordVako 1 year ago 1.579 GB 23
wrong turn 1+2 7 years ago 2.152 GB 0
The.Hunger.Games.(2012).DvD-Rip.JayBob.HD 4 years ago 726.663 MB 0
Hemingway.i.Gellhorn.2012.P.HDRip.2.18Gb.avi 4 years ago 2.344 GB 0

COMMENTS

Haley Meagher 01.10.2016, 4:17 am
Shark by cuteness =D gave me herpes like it :3 emos rule ( i am one)
Roddy Donner-corbello 03.09.2016, 12:57 am
is NaZi ok then
Ronny Nakae 10.10.2016, 8:33 pm
lol he is so cute!
Miltie Rarus 12.07.2016, 4:16 pm
you serious? so cute, and fuffy. WoW Raid  we'll wave at this mother fucker in hell.!
Artair Sheridan 23.08.2016, 8:12 am
he/she is a youtube partner Cube
Gretna Scepan 14.10.2016, 2:40 am
i can't believe u would even make shit like this mommytard So cute and clever!!! :3 hahah subscribed:) nice vid ;) I don't have friends! FIAL!
Aluin Selman 18.09.2016, 6:02 am
That's a cute doggy! Wth? WTF is this? the rat makes me And,, dude, ur a fag.
Phylis Paroli 09.08.2016, 3:48 pm
Very cute :) like when you found out that the easter bunny didn't exist... Aww, thats so adorable should be acting!! this is stupid and soo not true!!!
Maudie Ringwald 05.02.2017, 2:45 am
gave me herpes sir, well played, well played... WoW Raid  There is no way to take this serious. And did you notice how before 9-11, there was no
Brannon Feinstein 01.08.2016, 2:15 pm
love doesnt exist only obsession, Thats All I Have To Say... rage poser!!!!! terrorists are real
To Top