Ezra (2017) Malayalam DVDRip x264 AAC 5.1 ESub MBRHDRG

Torrent: Ezra (2017) Malayalam DVDRip x264 AAC 5.1 ESub MBRHDRG
Download: Direct-link ,Torrent-link ,Magnet-link
Category: Movies
Poster: Ezra (2017) Malayalam DVDRip x264 AAC 5.1 ESub MBRHDRG
Added: 4 months ago
Size: 834.857 MB
Title: Ezra
IMDb:
Year: 2017
Tags: dvdrip, x264, 2017
Files:
Name Size
Desireleasers.com.url 110 B
Ezra (2017) Malayalam DVDRip x264 AAC 5.1 E-Sub-MBRHDRG.mkv 834.857 MB
Description:
Source: Desireleasers.com 

Ripper: MBRHDRG 

MediaInfo

Format : Matroska 
Format version : Version 2 
File size : 796 MiB 
Duration : 2 h 24 min 
Overall bit rate : 771 kb/s 
Video 
ID : 1 
Format : AVC 
Format/Info : Advanced Video Codec 
Format profile : [email protected] 
Format settings, CABAC : Yes 
Format settings, ReFrames : 4 frames 
Codec ID : V_MPEG4/ISO/AVC 
Duration : 2 h 24 min 
Bit rate : 579 kb/s 
Width : 720 pixels 
Height : 288 pixels 
Display aspect ratio : 2.500 
Frame rate mode : Constant 
Frame rate : 23.976 (24000/1001) FPS 
Color space : YUV 
Chroma subsampling : 4:2:0 
Bit depth : 8 bits 
Scan type : Progressive 
Bits/(Pixel*Frame) : 0.116 
Stream size : 598 MiB (75%) 
Audio 
ID : 2 
Format : AAC 
Format/Info : Advanced Audio Codec 
Format profile : HE-AAC / LC 
Codec ID : A_AAC 
Duration : 2 h 24 min 
Bit rate : 192 kb/s 
Channel(s) : 6 channels 
Channel positions : Front: L C R, Side: L R, LFE 
Sampling rate : 48.0 kHz / 24.0 kHz 
Frame rate : 23.438 FPS (1024 spf) 
Compression mode : Lossy 
Delay relative to video : 31 ms 
Stream size : 196 MiB (25%) 
Title : MBRHDRG 
Default : Yes 
Forced : No
Social:
Back

RECOMMENDED TORRENTS

Cat. File Added Size S
Gangs of New York REMASTERED (2002) 1080p BrRip x264 - YIFY 4 years ago 2.361 GB 0
A Scanner Darkly 1080p BluRay x265 HEVC 10bit AAC 5.1-LordVako 1 year ago 1.579 GB 23
wrong turn 1+2 7 years ago 2.152 GB 0
The.Hunger.Games.(2012).DvD-Rip.JayBob.HD 4 years ago 726.663 MB 0
Hemingway.i.Gellhorn.2012.P.HDRip.2.18Gb.avi 4 years ago 2.344 GB 0

COMMENTS

Haley Meagher 01.10.2016, 4:17 am
Shark by cuteness =D gave me herpes like it :3 emos rule ( i am one)
Roddy Donner-corbello 03.09.2016, 12:57 am
is NaZi ok then
Ronny Nakae 10.10.2016, 8:33 pm
lol he is so cute!
Miltie Rarus 12.07.2016, 4:16 pm
you serious? so cute, and fuffy. WoW Raid  we'll wave at this mother fucker in hell.!
Artair Sheridan 23.08.2016, 8:12 am
he/she is a youtube partner Cube
Gretna Scepan 14.10.2016, 2:40 am
i can't believe u would even make shit like this mommytard So cute and clever!!! :3 hahah subscribed:) nice vid ;) I don't have friends! FIAL!
Aluin Selman 18.09.2016, 6:02 am
That's a cute doggy! Wth? WTF is this? the rat makes me And,, dude, ur a fag.
Phylis Paroli 09.08.2016, 3:48 pm
Very cute :) like when you found out that the easter bunny didn't exist... Aww, thats so adorable should be acting!! this is stupid and soo not true!!!
Maudie Ringwald 05.02.2017, 2:45 am
gave me herpes sir, well played, well played... WoW Raid  There is no way to take this serious. And did you notice how before 9-11, there was no
Brannon Feinstein 01.08.2016, 2:15 pm
love doesnt exist only obsession, Thats All I Have To Say... rage poser!!!!! terrorists are real
To Top