Black Music Legends of the 1980s S01E02 Prince - A Purple Reign (...

Torrent: Black Music Legends of the 1980s S01E02 Prince - A Purple Reign (...
Download: Direct-link, Torrent-link, Magnet-link
Category: TV Shows
Added: 5 days ago
Size: 692.4 MB
Tags: SVCD/VCD
Files:
Name Size
Black Music Legends of the 1980s S01E02 Prince - A Purple Reign.mp4 691.6 MB
Black Music Legends of the 1980s S01E02 Prince - A Purple Reign.jpg 694.8 KB
About this torrent.txt 2.6 KB
Black Music Legends of the 1980s S01E02 Prince - A Purple Reign.srt 126.3 KB
Torrent Downloaded From 1337x.to.txt 0.0 KB
Torrent Downloaded From Katcr.co - Kickasstorrents.txt 0.1 KB
Torrent_downloaded_from_Demonoid_-_www.demonoid.pw_.txt 0.1 KB
Description:

Black Music Legends of the 1980s S01E02 Prince - A Purple Reign (540p, soft Eng subs)

Film which explores how Prince - showman, artist, enigma - revolutionised the perception of black music in the 1980s with worldwide hits such as 1999, Kiss, Raspberry Beret and Alphabet Street. He became a global sensation with the release of the Oscar-winning, semi-autobiographical movie Purple Rain in 1984, embarking on an incredible journey of musical self-discovery that continued right up to his passing in April 2016, aged 57.

From the psychedelic Around the World in a Day to his masterpiece album Sign O' the Times and experiments with hip-hop and jazz, Prince was one of most ambitious and prolific songwriters of his generation. He tested the boundaries of taste and decency with explicit sexual lyrics and stage shows during his early career and in the 1990s fought for ownership of his name and control of his music, played out in a public battle with his former label, Warner. Highly regarded as one of the most flamboyant live performers ever, Prince was a controversial and famously elusive creative force.

Contributors include Revolution guitarist Dez Dickerson, Paisley Park label president Alan Leeds, hip-hop legend Chuck D and Prince 'Mastermind' and UK soul star Beverley Knight.

(with soft subtitles)

First broadcast: 25 November 2011
Duration: 1 hour



Media info:-
General
Format : MPEG-4
Format profile : Base Media
Codec ID : isom (isom/iso2/avc1/mp41)
File size : 692 MiB
Duration : 59mn 14s
Overall bit rate : 1 632 Kbps
Writing application : Lavf57.25.100

Video
ID : 1
Format : AVC
Format/Info : Advanced Video Codec
Format profile :
Format settings, CABAC : Yes
Format settings, ReFrames : 4 frames
Format settings, GOP : M=8, N=96
Codec ID : avc1
Codec ID/Info : Advanced Video Coding
Duration : 59mn 14s
Bit rate : 1 533 Kbps
Width : 960 pixels
Height : 540 pixels
Display aspect ratio : 16:9
Frame rate mode : Constant
Frame rate : 25.000 fps
Color space : YUV
Chroma subsampling : 4:2:0
Bit depth : 8 bits
Scan type : Progressive
Bits/(Pixel*Frame) : 0.118
Stream size : 650 MiB (94%)
Encoded date : UTC 1904-01-01 00:00:00
Tagged date : UTC 1904-01-01 00:00:00
Color range : Limited
Color primaries : BT.601 NTSC
Transfer characteristics : BT.601
Matrix coefficients : BT.601

Audio
ID : 2
Format : AAC
Format/Info : Advanced Audio Codec
Format profile : HE-AAC / LC
Codec ID : 40
Duration : 59mn 14s
Bit rate mode : Constant
Bit rate : 96.0 Kbps
Channel(s) : 2 channels
Channel positions : Front: L R
Sampling rate : 48.0 KHz / 24.0 KHz
Frame rate : 23.438 fps (1024 spf)
Compression mode : Lossy
Stream size : 40.1 MiB (6%)
Language : English

Social:
Back

RECOMMENDED TORRENTS

Cat. File Added Size S
Queen of the South S01E04 Lirio de los Valles 720p WEB-DL EN-SUB x264-[MULVAcoded] 1 year ago 278.36 MB 10
90210 S05E05 HDTV x264-2HD[ettv] 4 years ago 365.329 MB 32
Unearthed.2016.S02E05.iNTERNAL.720p.HDTV.x264-DHD[ettv] 1 month ago 929.0 MB 14
Body of Proof S02E16 HDTV XviD-2HD[ettv] 5 years ago 365.913 MB 14
Greys Anatomy S09E03 HDTV x264-LOL[ettv] 4 years ago 253.257 MB 34

COMMENTS

Haley Meagher 01.10.2016, 4:17 am
Shark by cuteness =D gave me herpes like it :3 emos rule ( i am one)
Roddy Donner-corbello 03.09.2016, 12:57 am
is NaZi ok then
Ronny Nakae 10.10.2016, 8:33 pm
lol he is so cute!
Miltie Rarus 12.07.2016, 4:16 pm
you serious? so cute, and fuffy. WoW Raid  we'll wave at this mother fucker in hell.!
Artair Sheridan 23.08.2016, 8:12 am
he/she is a youtube partner Cube
Gretna Scepan 14.10.2016, 2:40 am
i can't believe u would even make shit like this mommytard So cute and clever!!! :3 hahah subscribed:) nice vid ;) I don't have friends! FIAL!
Aluin Selman 18.09.2016, 6:02 am
That's a cute doggy! Wth? WTF is this? the rat makes me And,, dude, ur a fag.
Phylis Paroli 09.08.2016, 3:48 pm
Very cute :) like when you found out that the easter bunny didn't exist... Aww, thats so adorable should be acting!! this is stupid and soo not true!!!
Maudie Ringwald 05.02.2017, 2:45 am
gave me herpes sir, well played, well played... WoW Raid  There is no way to take this serious. And did you notice how before 9-11, there was no
Brannon Feinstein 01.08.2016, 2:15 pm
love doesnt exist only obsession, Thats All I Have To Say... rage poser!!!!! terrorists are real
To Top